MplayerCE - lip sync

Discussion in 'Wii - Emulation and Homebrew' started by Mantis41, Jul 13, 2009.

Jul 13, 2009

MplayerCE - lip sync by Mantis41 at 7:33 PM (577 Views / 0 Likes) 2 replies

  1. Mantis41
    OP

    Member Mantis41 GBAtemp Advanced Maniac

    Joined:
    Jun 3, 2009
    Messages:
    1,853
    Location:
    earth
    Country:
    United States
    Has anyone had trouble with the lip sync on MplayerCE. I find the problem more pronounced if I have paused or skipped through the VID. I have notice all versions do this, some worse than others, certain video types could be worse than others.

    Cheers, [​IMG]
     
  2. UranusKiller

    Member UranusKiller TranceMaster

    Joined:
    Feb 9, 2009
    Messages:
    951
    Location:
    Redcar, England, UK.
    Country:
    United Kingdom
    loading via?
     
  3. Mantis41
    OP

    Member Mantis41 GBAtemp Advanced Maniac

    Joined:
    Jun 3, 2009
    Messages:
    1,853
    Location:
    earth
    Country:
    United States
    Ah! that might help.
    USB fat32 HDD. Seems to be running at USB2 as the caching only takes a second.

    I have noticed the lip-sync issue when watching episodes of supernatural under 0.6.
    I also had problems last night using 0.7, movie details below. (plays fine on PC, Win7, Klite, Media classic)

    Format : AVI
    Format/Info : Audio Video Interleave
    File size : 697 MiB
    Duration : 1h 40mn
    Overall bit rate : 971 Kbps
    Writing application : Nandub v1.0rc2
    Writing library : Nandub build 1852/release

    Video
    Format : MPEG-4 Visual
    Format profile : Streaming Video@L1
    Format settings, BVOP : Yes
    Format settings, QPel : No
    Format settings, GMC : No warppoints
    Format settings, Matrix : Default (H.263)
    Muxing mode : Packed bitstream
    Codec ID : XVID
    Codec ID/Hint : XviD
    Duration : 1h 40mn
    Bit rate : 852 Kbps
    Width : 640 pixels
    Height : 272 pixels
    Display aspect ratio : 2.35
    Frame rate : 25.000 fps
    Resolution : 24 bits
    Colorimetry : 4:2:0
    Scan type : Progressive
    Bits/(Pixel*Frame) : 0.196
    Stream size : 612 MiB (88%)
    Writing library : XviD 1.2.1 (UTC 2008-12-04)

    Audio
    Format : MPEG Audio
    Format version : Version 1
    Format profile : Layer 3
    Codec ID : 55
    Codec ID/Hint : MP3
    Duration : 1h 40mn
    Bit rate mode : Variable
    Bit rate : 106 Kbps
    Channel(s) : 2 channels
    Sampling rate : 48.0 KHz
    Resolution : 16 bits
    Stream size : 75.8 MiB (11%)
    Alignment : Aligned on interleaves
    Interleave, duration : 24 ms (0.60 video frame)
    Interleave, preload duration : 465 ms

    Cheers [​IMG]
     

Share This Page